#TITLE:Wizards and Warriors;
#SUBTITLE:;
#ARTIST:Nintendo;
#TITLETRANSLIT:;
#SUBTITLETRANSLIT:;
#ARTISTTRANSLIT:;
#CREDIT:xl neoMax lx;
#BANNER:w n w-banner.bmp;
#BACKGROUND:w n w.jpg;
#LYRICSPATH:;
#CDTITLE:!neomax.JPG;
#MUSIC:Wizards and Warriors.mp3;
#OFFSET:1.713;
#SAMPLESTART:0.034;
#SAMPLELENGTH:12.000;
#SELECTABLE:YES;
#BPMS:0.000=225.001;
#STOPS:;
#BGCHANGES:;
// cache tags:
#FIRSTBEAT:8.000;
#LASTBEAT:144.000;
#SONGFILENAME:Songs/Music V.I.P ^_^/Wizards and Warriors (NeoMAX)/Wizards and Warriors.sm;
#HASMUSIC:1;
#HASBANNER:1;
#MUSICLENGTH:37.537;
// end cache tags

//---------------dance-single - ----------------
#NOTES:
     dance-single:
     :
     Hard:
     9:
     0.601,0.810,0.027,0.053,0.000,155.000,1.000,2.000,0.000,0.000:


0000
0000
0000
0000
,
0000
0000
0000
0000
,
0000
0000
0000
0000
,
0000
0000
0000
0000
,
0000
0000
0000
0000
,
0000
0000
0000
0000
,
1000
0100
0010
0001
0100
0010
0100
0001
,
1000
0100
0010
0100
1000
0010
0100
0001
,
1000
0100
0010
0001
1000
0010
0100
0001
,
0100
0010
0100
0001
1000
0100
0010
0100
,
1000
0010
0100
0001
1000
0100
0010
0000
,
0001
0000
0000
0000
,
0100
0000
0000
0000
,
0010
0100
0001
1000
,
0100
0000
1000
0000
0010
0100
0001
0000
,
1000
0000
0100
0000
0010
0100
1000
0000
,
0010
1000
0001
0000
0100
0001
0100
0000
,
0001
0010
0100
0000
0100
1000
0100
0010
,
0001
0000
1000
0000
0100
0010
0001
0000
,
0100
0000
0000
0010
1000
0000
0000
0100
,
1000
0000
0010
0000
0100
0001
0100
0000
,
0001
0000
0000
0010
0100
0000
1000
0000
,
0010
0000
0100
0000
0001
1000
0001
0000
,
1000
0000
0100
0000
0010
0100
0010
0000
,
0100
1000
0010
0100
,
0001
0000
0100
0000
0010
0100
0001
1000
,
0100
0000
0010
0000
0100
1000
0100
0000
,
0001
0000
0000
0010
0100
0000
0000
1000
,
0010
0000
0100
0000
0001
0100
0001
0000
,
1000
0000
0000
0100
0010
0000
0001
0000
,
0100
0000
0010
0000
1000
0100
1000
0000
,
0010
0000
0100
0000
0001
0100
0001
0000
,
0100
0010
1000
0100
,
0010
0001
0100
0010
,
0001
0010
0100
1000
0010
0100
0001
1000
,
0100
0010
0001
1000
2002
0000
3003
0000
;

//---------------dance-single - ----------------
#NOTES:
     dance-single:
     :
     Challenge:
     10:
     1.000,1.000,0.986,0.053,0.240,261.000,37.000,2.000,0.000,0.000:


0000
0000
0000
0000
,
0000
0000
0000
0000
,
1000
0100
0010
0001
1000
0100
0010
0001
1000
0100
0010
0001
1000
0100
0010
0001
,
1000
0010
0100
0001
1000
0010
0100
0001
1000
0010
0100
0001
1000
0010
0100
0001
,
0011
0011
0011
0000
1100
1100
1100
0000
,
1010
1010
1010
1010
0110
0110
0101
0000
,
1001
0000
0110
0000
,
1001
0000
0110
0000
,
1001
0110
1001
0110
,
1001
0110
1001
0110
1001
0110
1001
0110
,
1001
0000
0110
0000
1000
0010
0100
0001
,
1000
0100
0010
0001
1000
0010
0100
0001
,
0100
0010
0100
0001
1000
0100
0010
0001
,
1000
0001
0100
0010
1000
0001
0100
0010
,
1000
0100
0010
0001
0100
1000
0100
0010
,
1000
0010
0001
0100
1000
0010
0100
0001
,
1000
0001
1001
0000
1001
0000
1001
0000
,
1001
0000
0110
0000
0001
1000
0001
1000
,
0010
0100
0001
1000
0100
0010
0001
1000
,
0100
0010
0001
0100
0010
0100
0001
0100
,
0010
1000
0100
0010
0100
1000
0010
0100
,
0001
1000
0010
0100
0001
1000
0100
0010
,
0001
1000
0010
0100
0001
0100
0001
0100
,
0010
0100
0010
0100
0010
1000
0100
1000
,
0100
0010
0100
1000
0100
0010
0001
0010
,
0100
0010
0001
1000
0010
1000
0001
1000
,
0001
1000
0100
0010
0001
0010
0100
1000
,
0100
0010
0001
1000
0010
0100
0001
1000
,
0100
0010
0001
1000
0010
1000
0001
1000
,
0001
0100
0010
0100
0001
1000
0100
0010
,
0100
1000
0001
0010
0100
1000
0001
0100
,
0010
1000
0001
0100
0010
1000
0001
0100
,
0010
1000
0001
1000
0100
0010
0001
0010
,
0001
1000
0100
0010
0100
0010
0100
1000
,
0010
0100
0001
1000
0010
0100
0001
1000
,
0001
0010
0100
0000
1000
0100
0010
0000
2002
0000
0000
0000
0000
0000
0000
0000
,
3003
0000
0000
0000
;

//---------------dance-single - ----------------
#NOTES:
     dance-single:
     :
     Edit:
     10:
     0.000,0.000,0.000,0.000,0.000,0.000,0.000,0.000,0.000,0.000:
;

//---------------dance-single - ----------------
#NOTES:
     dance-single:
     :
     Medium:
     8:
     0.636,0.810,0.426,0.053,0.000,149.000,16.000,2.000,0.000,0.000:


0000
0000
0000
0000
,
0000
0000
0000
0000
,
1000
0010
0100
0000
0001
0010
0100
0000
,
1000
0100
0010
0001
0100
0010
1000
0000
,
0001
0100
0010
0000
1000
0100
0010
0000
,
0001
0010
0100
1000
0010
0100
0001
0000
,
1001
0000
0000
0000
,
1001
0000
0000
0000
,
0001
1000
0001
1000
,
0100
0010
0001
0100
,
1001
0000
0001
0000
,
1000
0000
0100
0000
,
1100
0100
0011
0001
,
0101
0000
0010
0000
1010
0000
0100
1000
,
0100
1000
0010
0100
,
0001
1000
0100
0010
,
0001
0100
0010
0100
,
0001
0100
0010
1000
,
0100
0000
1000
0000
0010
0001
0100
0000
,
0001
0100
1000
0100
,
0001
0010
1000
0010
,
0001
0100
0010
1000
,
0100
0010
0001
0100
,
0010
0100
0001
1000
,
1100
0001
0011
0001
,
0101
0010
1010
0100
,
1000
0100
0010
0001
,
0100
0000
0010
0000
0100
0001
0100
0001
,
1000
0010
0100
0001
,
1000
0010
0100
0001
,
1000
0100
0010
0001
,
0100
0010
1000
0010
,
1010
0101
0011
1100
,
1000
0010
0100
0001
0010
0100
1000
0100
,
1000
0100
0010
0001
1000
0100
0010
0001
,
1000
0001
1000
0001
2002
0000
3003
0000
;

//---------------dance-single - ----------------
#NOTES:
     dance-single:
     :
     Easy:
     6:
     0.434,0.857,0.586,0.053,0.000,90.000,22.000,2.000,0.000,0.000:


0000
0000
0000
0000
,
0000
0000
0000
0000
,
0000
0000
0000
0000
,
0000
0000
0000
0000
,
0000
0000
0000
0000
,
0000
0000
0000
0000
,
0010
1000
0100
0000
,
0010
0001
0100
0000
,
1000
0100
0001
0100
,
1000
0100
0001
0100
,
1000
0001
1000
0001
,
0100
0010
0100
0010
,
1000
0100
1000
0100
,
0010
0001
0010
0001
,
0100
0001
0100
0001
,
1000
0010
1000
0010
,
1000
0000
0001
0000
,
0100
0000
0010
0000
,
1001
0000
0000
0000
,
1001
0000
0000
0000
,
0110
0000
0000
0000
,
0110
0000
0000
0000
,
1001
0000
0110
0000
,
1001
0000
0110
0000
,
1010
0000
0101
0000
,
0011
0000
1100
0000
,
1000
0100
0010
0000
,
0001
0100
0010
0000
,
1000
0000
0010
0000
0100
0001
0010
0100
,
1000
0010
0100
0000
,
1000
0000
0001
0000
,
0100
0000
0000
0000
0010
1000
0010
0000
,
1010
0101
0011
1100
,
1010
0101
1100
0011
,
1001
0010
0100
0001
,
1000
0100
2002
3003
;

//---------------dance-single - ----------------
#NOTES:
     dance-single:
     :
     Beginner:
     4:
     0.232,0.476,0.160,0.053,0.000,53.000,6.000,2.000,0.000,0.000:


0000
0000
0000
0000
,
0000
0000
0000
0000
,
0000
0000
0000
0000
,
0000
0000
0000
0000
,
0000
0000
0000
0000
,
0000
0000
0000
0000
,
1001
0000
0000
0000
,
0110
0000
0000
0000
,
1000
0000
0000
0000
,
0001
0000
0100
0000
,
0010
0000
1000
0000
,
0001
0000
0100
0000
,
0010
0000
1000
0000
,
0100
0000
0010
0000
,
0001
0000
0000
0000
,
0100
0000
0000
0000
,
1000
0000
0000
0000
,
0010
0000
0000
0000
,
1000
0000
0100
0000
,
0010
0000
0001
0000
,
0100
0000
0010
0000
,
1000
0000
0001
0000
,
0100
0000
0010
0000
,
1000
0000
0010
0000
,
1000
0000
0100
0000
,
0010
0000
0001
0000
,
1000
0000
0100
0000
,
1000
0000
0100
0000
,
0010
0000
0001
0000
,
0010
0000
0001
0000
,
1000
0000
0100
0000
,
0010
0000
0001
0000
,
1000
0000
0100
0000
,
0010
0000
0001
0000
,
1001
0000
0110
0000
,
1001
0000
2002
3003
;
